Конвектор аудио FDA => AIFC => WAV => AIFC => FDA

Пытался озвучку в W40k DoW DC впихнуть в интро
Воспользовался www.ctpax-x.org/index.php?goto=files&down=46
Автор: jTommy
Спойлер
===[ FDA <=> AIFC converter v1.0 by jTommy

Общая информация
Эта консольная программа конвертирует звуковые FDA файлы из игры
"W40k: Dawn of War" и "W40k: Winter Assault" в AIFC файлы игры
"Homeworld II". AIFC файлы можно сразу слушать в Winamp'е, с
помощью плагина Relic In_AIFx (www.winamp.com/plugins/details.php?id=272)
или декодировать в WAV.

Как пользоваться
Копируете конвертер в каталог с FDA файлами. Запускаете в командной
строке: "fda2aifc *.fda". Будут созданы файлы с расширением .aifc.
Эти файлы слушаете в Winamp или декодируете в WAV: "decShell *.aifc".
С помощью aifc2fda конвертера можно конвертировать AIFC файлы обратно
в FDA формат.

Файлы в архиве
fda2aifc.exe - Конвертер FDA => AIFC.
aifc2fda.exe - Конвертер AIFC => FDA.
dec.exe - Официальный декодер AIFC => WAV, от Relic Entertainment Inc.
enc.exe - Официальный кодер WAV => AIFC, от Relic Entertainment Inc.
decShell.exe - Консольная оболочка для декодера, поддерживает
файловые маски. Написана для удобства декодирования
большого количества файлов.
encShell.exe - То же самое, только для кодера.
fda2aifc_src.zip - Исходники на Дельфи.

Контакты
E-mail: jTommy@zmail.ru
WWW : не помню...

С толкнулся с тем что не получается конвектировать из Wav в AIFC
Попробовал при помощи сторонних сайтов (filezigzag) и программ (GoldWave, Adobe Audition) конвектировать в AIFC не помогло.
Формат который нужен
Спойлер
Общее
Полное имя : D:\Games\Dawn of War - Dark Crusade\a\fda2aifc\dow_intro.aifc
Формат : AIFF
Формат/Информация : Apple/SGI
Размер файла : 2,57 Мбайт
Продолжительность : 119 мс.
Режим общего битрейта : Постоянный
Общий поток : 181 Мбит/сек

Аудио
Формат : PCM
Идентификатор кодека : COMP
Продолжительность : 119 мс.
Вид битрейта : Постоянный
Битрейт : 181 Мбит/сек
Каналы : 2 канала
Частота : 44,1 КГц
Битовая глубина : 16 бит
Размер потока : 2,57 Мбайт (100%)


Формат который получается
Спойлер
Общее
Полное имя : D:\Games\Dawn of War - Dark Crusade\a\fda2aifc\dow_intror0.aifc
Формат : AIFF
Формат/Информация : Apple/SGI
Размер файла : 10,6 Мбайт
Продолжительность : 1 м. 2 с.
Режим общего битрейта : Постоянный
Общий поток : 1411 Кбит/сек

Аудио
Формат : PCM
Параметр Endianness формата : Big
Идентификатор кодека : NONE
Продолжительность : 1 м. 2 с.
Вид битрейта : Постоянный
Битрейт : 1411 Кбит/сек
Каналы : 2 канала
Частота : 44,1 КГц
Битовая глубина : 16 бит
Размер потока : 10,6 Мбайт (100%)


Файлы побаловаться
Спойлер


Надеюсь что помножите советом, как быть с этой бедой
B
i
u
Спойлер